<?xml version="1.0" encoding="UTF-8" standalone="no"?>
<!-- Creator: CorelDRAW X7 -->

<svg
   xml:space="preserve"
   width="1260px"
   height="411px"
   version="1.1"
   style="shape-rendering:geometricPrecision; text-rendering:geometricPrecision; image-rendering:optimizeQuality; fill-rule:evenodd; clip-rule:evenodd"
   viewBox="0 0 1260 411"
   id="svg18042"
   sodipodi:docname="Rüstungsständer Rabatt_fr.svg"
   inkscape:version="1.2 (dc2aedaf03, 2022-05-15)"
   xmlns:inkscape="http://www.inkscape.org/namespaces/inkscape"
   xmlns:sodipodi="http://sodipodi.sourceforge.net/DTD/sodipodi-0.dtd"
   xmlns:xlink="http://www.w3.org/1999/xlink"
   xmlns="http://www.w3.org/2000/svg"
   xmlns:svg="http://www.w3.org/2000/svg"><sodipodi:namedview
   id="namedview18044"
   pagecolor="#ffffff"
   bordercolor="#000000"
   borderopacity="0.25"
   inkscape:showpageshadow="2"
   inkscape:pageopacity="0.0"
   inkscape:pagecheckerboard="0"
   inkscape:deskcolor="#d1d1d1"
   showgrid="false"
   inkscape:zoom="1.547619"
   inkscape:cx="555.04615"
   inkscape:cy="205.47692"
   inkscape:window-width="3840"
   inkscape:window-height="2054"
   inkscape:window-x="-11"
   inkscape:window-y="-11"
   inkscape:window-maximized="1"
   inkscape:current-layer="Ebene_x0020_1" />
 <defs
   id="defs18003">
  <font
   id="FontID1"
   horiz-adv-x="666"
   font-variant="normal"
   style="fill-rule:nonzero"
   font-style="normal"
   font-weight="400">
	<font-face
   font-family="Arial"
   id="font-face17763">
	</font-face>
   <missing-glyph
   id="missing-glyph17767"><path
     d="M0 0z"
     id="path17765" /></missing-glyph>
   <glyph
   unicode="€"
   horiz-adv-x="556"
   id="glyph17771"><path
     d="M385.998 646.998c-54.6676,0 -100.491,-13.1648 -137.504,-39.4943 -22.1607,-15.5108 -42.161,-37.6715 -60.001,-66.1783 -18.1606,-29.6545 -28.9963,-57.655 -32.1524,-84.3221l332.664 0 -13.1648 -66.0096 -327.347 0c-0.320681,-6.83556 -0.48946,-13.3336 -0.48946,-19.3252 0,-24.9962 0.168779,-39.8319 0.48946,-44.6759l314.503 0 -13.6542 -65.9927 -290.503 0c13.5023,-74.3304 46.3299,-127.175 98.3308,-158.332 37.5027,-22.4983 77.8241,-33.6715 121.504,-33.6715 60.828,0 108.154,16.0003 142.332,48.0008l0 -100.66c-40.6758,-18.8358 -85.5036,-28.338 -134.669,-28.338 -147.175,0 -246.502,61.1656 -298.165,183.328 -10.4981,24.6755 -19.5109,54.4988 -26.8359,89.6724l-74.3304 0 13.5023 65.9927 50.9882 0c-0.995797,13.5023 -1.50214,28.338 -1.50214,44.1695 0,6.498 0.168779,12.996 0.506338,19.8316l-63.4947 0 13.5023 66.0096 56.3216 0c20.1691,105.993 72.8451,181.995 157.674,228.156 52.3384,28.5068 110.162,42.8362 173.336,42.8362 60.4905,0 111.327,-13.1648 152.661,-39.4943l-19.494 -90.4994c-39.6631,32.6588 -84.6765,48.9966 -135.006,48.9966z"
     id="path17769" /></glyph>
   <glyph
   unicode="3"
   horiz-adv-x="556"
   id="glyph17775"><path
     d="M41.9923 189.995l88.0015 12.0002c10.1774,-49.9924 27.1735,-85.993 51.3426,-108.002 24.1692,-21.9919 53.8237,-32.9963 88.9973,-32.9963 41.6716,0 76.8283,14.3294 105.166,43.0049 28.338,28.6587 42.4986,64.1699 42.4986,106.5 0,40.3382 -13.1648,73.6721 -39.6631,100.002 -26.3296,26.1608 -59.8322,39.3256 -100.677,39.3256 -16.6585,0 -37.3171,-3.32495 -62.1614,-9.82295l9.83983 76.9971c5.82288,-0.675117 10.6668,-0.995797 14.1606,-0.995797 37.6715,0 71.343,9.82295 101.504,29.3338 29.9921,19.494 44.9965,49.4861 44.9965,89.9931 0,32.1693 -11.0044,58.8364 -32.8276,80.0014 -21.84,21.1649 -50.0093,31.663 -84.5078,31.663 -34.3297,0 -62.8365,-10.8356 -85.6555,-32.49 -22.8358,-21.6713 -37.5027,-54.1781 -44.0007,-97.5038l-88.0015 16.0003c10.8356,58.9883 35.1567,104.829 73.3346,137.336 37.9922,32.49 85.4867,48.659 142.163,48.659 39.0049,0 75.0055,-8.33769 107.833,-25.165 32.9963,-16.6754 58.1613,-39.4943 75.4949,-68.3387 17.5024,-28.9963 26.1777,-59.6635 26.1777,-92.1703 0,-30.8191 -8.33769,-58.8196 -24.8443,-84.1533 -16.6585,-25.3338 -41.334,-45.5029 -73.824,-60.5074 42.3298,-9.67105 75.1574,-29.9921 98.6683,-60.828 23.3253,-30.6672 34.9879,-69.3345 34.9879,-115.496 0,-62.5158 -22.8358,-115.681 -68.3218,-159.176 -45.6717,-43.4944 -103.344,-65.1657 -173.016,-65.1657 -62.8196,0 -114.989,18.8358 -156.492,56.3385 -41.6716,37.5027 -65.3344,85.993 -71.1742,145.656z"
     id="path17773" /></glyph>
   <glyph
   unicode="f"
   horiz-adv-x="277"
   id="glyph17779"><path
     d="M87.0007 0l0 450.996 -78.0006 0 0 68.0084 78.0006 0 0 54.9926c0,34.8428 3.00002,60.6619 9.16543,77.5045 8.504,22.6537 23.1734,41.1736 44.5043,55.3233 21.1655,14.1733 51.0004,21.1655 89.3393,21.1655 24.827,0 52.1579,-3.00002 82.1581,-8.83472l-13.1576 -76.9849c-18.3545,3.16538 -35.5042,4.81894 -51.8508,4.81894 -26.6695,0 -45.4964,-5.64571 -56.6697,-16.9844 -10.9843,-11.3387 -16.4883,-32.5042 -16.4883,-63.4966l0 -47.5043 101.009 0 0 -68.0084 -100.017 0 0 -450.996 -87.9928 0z"
     id="path17777" /></glyph>
   <glyph
   unicode="t"
   horiz-adv-x="277"
   id="glyph17783"><path
     d="M257.01 78.4967l12.0001 -77.6699c-24.6852,-5.14965 -46.8429,-7.81896 -66.1659,-7.81896 -31.8428,0 -56.5044,4.98429 -74.1738,15.1655 -17.5041,10.1576 -29.8349,23.3151 -36.9924,39.8271 -7.18116,16.4883 -10.6772,51.1658 -10.6772,104.009l0 298.987 -65.0084 0 0 68.0084 65.0084 0 0 128.34 87.9928 52.8193 0 -181.159 88.0164 0 0 -68.0084 -88.0164 0 0 -303.995c0,-25.1577 1.51182,-41.3389 4.6772,-48.4964 3.00002,-7.18116 7.98431,-12.8269 15.0001,-17.1734 6.99218,-4.15751 16.9844,-6.33076 30.0002,-6.33076 9.66149,0 22.4884,1.15749 38.3389,3.49609z"
     id="path17781" /></glyph>
   <glyph
   unicode="c"
   horiz-adv-x="500"
   id="glyph17787"><path
     d="M405.003 189.994l86.0086 -12.0001c-9.51976,-59.1501 -33.5199,-105.332 -72.3549,-138.828 -38.835,-33.4963 -86.6464,-50.1736 -143.151,-50.1736 -70.8431,0 -127.844,23.1734 -170.836,69.4966 -43.1814,46.3468 -64.6777,112.678 -64.6777,199.017 0,55.9847 9.33078,104.835 27.8506,146.836 18.4962,41.835 46.6539,73.3234 84.6621,94.1582 37.8192,21.0002 78.9927,31.4884 123.662,31.4884 56.1737,0 102.332,-14.1497 138.001,-42.6618 35.8349,-28.4884 58.843,-69.0005 68.8352,-121.324l-84.9928 -12.9922c-8.17329,34.8192 -22.512,60.9926 -43.3468,78.662 -20.6695,17.5041 -45.6618,26.3388 -75.0006,26.3388 -44.3389,0 -80.3392,-15.8505 -108.166,-47.5043 -27.6616,-31.8428 -41.5043,-81.851 -41.5043,-150.497 0,-69.6856 13.3466,-120.166 40.0161,-151.678 26.8349,-31.4884 61.654,-47.339 104.481,-47.339 34.6774,0 63.5202,10.5119 86.5046,31.6774 23.1734,21.0002 37.8428,53.5044 44.0082,97.3236z"
     id="path17785" /></glyph>
   <glyph
   unicode="0"
   horiz-adv-x="556"
   id="glyph17791"><path
     d="M42.0003 353.341c0,84.4967 8.66936,152.836 26.0081,204.498 17.4805,51.8272 43.3232,91.6543 77.6699,119.505 34.1577,27.827 77.3156,41.646 129.332,41.646 38.3153,0 72.0006,-7.6536 101.15,-23.1498 29.0081,-15.4962 53.0083,-37.8428 71.6699,-67.0163 18.6616,-28.9845 33.331,-64.4887 44.0082,-106.324 10.819,-41.835 16.1576,-98.3394 16.1576,-169.159 0,-84.0007 -8.66936,-152.009 -25.8191,-203.671 -17.1734,-51.8272 -43.0161,-91.6779 -77.3392,-119.67 -34.1814,-27.9923 -77.5045,-42.0003 -129.828,-42.0003 -68.8352,0 -123.001,24.4963 -162.332,73.6777 -47.1736,60.0005 -70.6777,157.159 -70.6777,291.664zm90.0007 -0.330711c0,-117.851 13.6773,-196.183 41.1736,-234.852 27.4963,-38.835 61.4887,-58.1579 101.835,-58.1579 40.3232,0 74.3155,19.4883 101.812,58.3233 27.5199,39.0003 41.1736,117.166 41.1736,234.687 0,117.828 -13.6537,196.159 -41.1736,234.829 -27.3309,38.835 -61.654,58.1579 -102.828,58.1579 -40.3232,0 -72.662,-17.1734 -96.8275,-51.3311 -30.1656,-43.4885 -45.1657,-124.158 -45.1657,-241.655z"
     id="path17789" /></glyph>
   <glyph
   unicode="A"
   horiz-adv-x="666"
   id="glyph17795"><path
     d="M-1.4882 0l274.656 715.99 104.174 0 291.664 -715.99 -108.001 0 -82.8432 216.994 -301.491 0 -77.6699 -216.994 -100.489 0zm205.986 294.002l243.994 0 -74.6699 198.498c-22.4884,60.3312 -39.4964,110.174 -51.3311,149.505 -9.82685,-46.6775 -22.9844,-92.5047 -39.4964,-137.836l-78.4967 -210.167z"
     id="path17793" /></glyph>
   <glyph
   unicode="n"
   horiz-adv-x="556"
   id="glyph17799"><path
     d="M66.0005 0l0 519.004 78.9927 0 0 -73.6777c38.0082,56.5044 93.0007,84.6621 164.836,84.6621 31.3467,0 60.0005,-5.64571 86.1739,-16.819 26.1734,-11.1733 45.8271,-26.0081 58.8194,-44.1736 13.0159,-18.1655 22.1813,-39.8271 27.3545,-64.8194 3.16538,-16.3466 4.81894,-44.835 4.81894,-85.5125l0 -318.664 -87.9928 0 0 315.333c0,35.8349 -3.33073,62.6698 -10.1812,80.3392 -6.82683,17.6694 -18.9923,31.8191 -36.331,42.4964 -17.3151,10.4883 -37.8192,15.8269 -61.158,15.8269 -37.3231,0 -69.4966,-11.8347 -96.6622,-35.6696 -27.1656,-23.6695 -40.6775,-68.8352 -40.6775,-135.166l0 -283.16 -87.9928 0z"
     id="path17797" /></glyph>
   <glyph
   unicode="*"
   horiz-adv-x="389"
   id="glyph17803"><path
     d="M30.9924 585.005l22.3466 69.0005c51.6618,-18.1655 88.985,-33.827 112.489,-47.1736 -6.1654,58.6776 -9.49614,99.1661 -9.82685,121.158l71.0084 0c-1.01576,-32.1499 -4.6772,-72.3313 -11.3387,-120.662 33.4963,16.8427 71.8352,32.5042 114.993,46.6775l22.3466 -69.0005c-41.1736,-13.6773 -81.5203,-22.8427 -121.182,-27.3309 19.8427,-17.1734 47.6697,-48.0004 83.67,-92.174l-58.3233 -41.5043c-18.8505,25.6774 -41.1736,60.6619 -66.8509,104.835 -24.1655,-45.8271 -45.3311,-80.8353 -63.4966,-104.835l-57.3312 41.5043c37.5121,46.4886 64.5123,77.1738 80.6699,92.174 -41.835,8.14967 -81.4967,17.3151 -119.174,27.3309z"
     id="path17801" /></glyph>
   <glyph
   unicode="5"
   horiz-adv-x="556"
   id="glyph17807"><path
     d="M41.9923 188.003l92.0016 7.00434c6.83556,-44.8446 22.667,-78.4992 47.3426,-101.166 24.6586,-22.5151 54.8364,-33.8402 90.3306,-33.8402 42.8362,0 78.668,16.0003 107.833,47.832 28.9963,32.0005 43.4944,74.3304 43.4944,127.006 0,50.1612 -13.823,89.6555 -41.6547,118.669 -27.8317,28.9963 -64.6762,43.4944 -110.5,43.4944 -28.5068,0 -54.0094,-6.498 -76.6764,-19.5109 -22.4983,-12.996 -40.1695,-29.8233 -53.1655,-50.4987l-83.0056 12.0002 69.0138 368.006 354.993 0 0 -84.0014 -284.832 0 -38.161 -193.168c42.8193,30.1777 87.8327,45.1653 134.821,45.1653 62.347,0 115.006,-21.6544 157.842,-64.9969 42.8362,-43.3256 64.3218,-99.0059 64.3218,-166.99 0,-64.845 -18.8189,-120.846 -56.4904,-168.003 -45.8404,-58.0094 -108.508,-87.0057 -187.834,-87.0057 -64.9969,0 -117.994,18.3294 -159.159,54.8364 -41.1821,36.4901 -64.6762,84.8284 -70.516,145.167z"
     id="path17805" /></glyph>
   <glyph
   unicode="v"
   horiz-adv-x="500"
   id="glyph17811"><path
     d="M207.835 0l-195.835 518.996 94.1619 0 111.006 -310.824c12.0002,-33.5027 23.1734,-68.3387 33.3339,-104.508 7.83136,27.3422 18.667,60.1698 32.8276,98.6683l115.344 316.664 90.3306 0 -196.51 -518.996 -84.6597 0z"
     id="path17809" /></glyph>
   <glyph
   unicode="e"
   horiz-adv-x="556"
   id="glyph17815"><path
     d="M420.003 168.001l90.9928 -12.0001c-14.1733,-52.8429 -40.6539,-93.9929 -79.3235,-123.166 -38.6696,-29.1735 -88.0164,-43.8429 -148.182,-43.8429 -75.662,0 -135.662,23.3388 -180.001,70.0163 -44.3153,46.4886 -66.4966,111.993 -66.4966,196.159 0,87.0007 22.3466,154.655 67.1816,202.655 44.835,48.1657 102.993,72.1659 174.497,72.1659 69.1659,0 125.67,-23.4805 169.49,-70.6541 43.8429,-47.1736 65.8352,-113.505 65.8352,-198.994 0,-5.17327 -0.165356,-13.0159 -0.496067,-23.3388l-386.507 0c3.33073,-56.8351 19.3466,-100.513 48.3311,-130.678 28.8427,-30.1656 65.0084,-45.3311 108.166,-45.3311 32.1735,0 59.6698,8.504 82.3471,25.512 22.8191,16.9844 40.8192,44.1736 54.1658,81.4967zm-288.002 141.001l288.994 0c-3.8268,43.6539 -15.0001,76.3234 -33.1656,98.174 -27.827,33.827 -64.158,50.835 -108.662,50.835 -40.3232,0 -74.1738,-13.5119 -101.67,-40.5121 -27.3309,-27.0002 -42.4964,-63.1659 -45.4964,-108.497z"
     id="path17813" /></glyph>
   <glyph
   unicode="2"
   horiz-adv-x="556"
   id="glyph17819"><path
     d="M502.988 84.0007l0 -84.0007 -473.98 0c-0.685045,21.1655 2.83467,41.5043 10.3229,61.158 12.1655,32.1735 31.6774,64.0163 58.5123,95.174 26.8349,31.1577 65.1501,67.158 114.993,108.001 77.5045,63.8273 130.159,114.332 157.655,151.678 27.6853,37.3231 41.5043,72.662 41.5043,105.993 0,34.8192 -12.4962,64.158 -37.4885,88.1582 -25.0159,23.8348 -57.6619,35.8349 -97.8433,35.8349 -42.4964,0 -76.4888,-12.6615 -102.001,-38.0082 -25.4884,-25.1577 -38.3389,-60.1658 -38.6696,-105.001l-90.0007 9.00007c6.1654,67.347 29.5042,118.678 69.8509,154.017 40.4885,35.3389 94.6543,52.9847 162.828,52.9847 68.6698,0 123.166,-18.9923 163.159,-57.1658 40.1814,-38.1499 60.1658,-85.4889 60.1658,-141.828 0,-28.6538 -5.83469,-56.8351 -17.6694,-84.4967 -11.6694,-27.827 -31.1577,-57.0004 -58.3233,-87.6621 -27.3309,-30.4963 -72.4966,-72.662 -135.497,-126.001 -52.8429,-44.3389 -86.8353,-74.3392 -101.835,-90.1661 -15.0001,-15.8269 -27.3309,-31.6774 -37.1814,-47.6697l351.499 0z"
     id="path17817" /></glyph>
   <glyph
   unicode="T"
   horiz-adv-x="610"
   id="glyph17823"><path
     d="M258.994 0l0 631.989 -235.986 0 0 84.0007 566.981 0 0 -84.0007 -235.986 0 0 -631.989 -95.0086 0z"
     id="path17821" /></glyph>
   <glyph
   unicode="/"
   horiz-adv-x="277"
   id="glyph17827"><path
     d="M0 -12.0002l208.004 739.996 70.8366 0 -208.004 -739.996 -70.8366 0z"
     id="path17825" /></glyph>
   <glyph
   unicode="s"
   horiz-adv-x="500"
   id="glyph17831"><path
     d="M30.9924 155.009l87.0007 13.9844c4.84256,-34.8192 18.4962,-61.4887 40.8428,-80.1502 22.323,-18.5198 53.6697,-27.8506 93.6622,-27.8506 40.5121,0 70.5124,8.17329 90.1661,24.6852 19.512,16.323 29.3388,35.6459 29.3388,57.8272 0,19.8191 -8.83472,35.5042 -26.3388,46.8193 -12.3308,7.84258 -42.331,17.6694 -90.0007,29.8349 -64.3233,16.1812 -108.828,30.1656 -133.82,42.0003 -24.8506,12.0001 -43.6775,28.3467 -56.5044,49.3468 -12.8505,20.8348 -19.3466,43.9846 -19.3466,69.3313 0,23.1734 5.33862,44.5043 15.8505,64.158 10.6536,19.6773 24.9923,36.0003 43.1578,49.0161 13.6773,9.9922 32.3388,18.4962 55.843,25.4884 23.6459,6.99218 48.8272,10.4883 75.8274,10.4883 40.6539,0 76.3234,-5.81107 106.985,-17.6458 30.8506,-11.6694 53.5044,-27.6853 68.1738,-47.6697 14.5041,-20.1734 24.6616,-47.0082 30.1656,-80.6699l-85.9849 -12.0001c-3.85042,27.0002 -15.1891,48.1657 -33.8507,63.3312 -18.6616,15.1655 -45.0004,22.6773 -79.1581,22.6773 -40.1578,0 -69.0005,-6.68509 -86.1739,-20.008 -17.1497,-13.3466 -25.8191,-29.0081 -25.8191,-46.8429 0,-11.3387 3.49609,-21.6616 10.6536,-30.827 7.18116,-9.33078 18.3309,-17.1734 33.6617,-23.3388 8.83472,-3.33073 34.5121,-10.819 77.5045,-22.4884 62.0084,-16.5119 105.332,-30.1656 129.993,-40.6775 24.6852,-10.4883 44.0082,-25.9845 58.0162,-45.9925 14.1733,-20.1734 21.1655,-45.1657 21.1655,-75.1659 0,-29.1735 -8.504,-56.6697 -25.6774,-82.5125 -17.1497,-25.8191 -41.835,-45.8271 -73.9848,-60.0005 -32.3388,-14.1497 -68.8352,-21.1655 -109.513,-21.1655 -67.3234,0 -118.82,14.008 -154.159,41.835 -35.3389,28.016 -57.8272,69.3313 -67.6777,124.182z"
     id="path17829" /></glyph>
   <glyph
   unicode=","
   horiz-adv-x="277"
   id="glyph17835"><path
     d="M88.9973 0l0 100.002 100.002 0 0 -100.002c0,-36.8276 -6.498,-66.6678 -19.6628,-89.3348 -12.996,-22.667 -33.8402,-40.3382 -62.3302,-52.6591l-24.0004 37.9922c18.667,8.16891 32.3212,20.1691 40.9965,35.8318 8.82715,15.8315 13.823,38.4985 14.8357,68.1699l-49.8405 0z"
     id="path17833" /></glyph>
   <glyph
   unicode="p"
   horiz-adv-x="556"
   id="glyph17839"><path
     d="M66.0005 -198.994l0 717.998 80.0085 0 0 -68.1738c18.8269,26.3388 40.1578,46.1815 63.9926,59.339 23.6695,13.1576 52.4886,19.8191 86.3393,19.8191 44.3153,0 83.3156,-11.315 117.166,-34.1577 33.827,-22.6537 59.3154,-54.8272 76.6541,-96.1661 17.1734,-41.5043 25.8427,-86.8353 25.8427,-136.324 0,-52.8429 -9.49614,-100.513 -28.512,-143.009 -18.9923,-42.331 -46.6539,-74.8352 -82.9849,-97.489 -36.1656,-22.512 -74.3392,-33.8507 -114.332,-33.8507 -29.3388,0 -55.6776,6.1654 -78.851,18.4962 -23.3151,12.3544 -42.331,27.8506 -57.3312,46.6775l0 -253.159 -87.9928 0zm80.0085 455.319c0,-66.4966 13.4883,-115.654 40.3232,-147.497 27.0002,-31.8191 59.6698,-47.835 98.0086,-47.835 39.0003,0 72.3313,16.5119 99.9929,49.5122 27.827,33.0003 41.6696,84.0007 41.6696,153.167 0,66.0005 -13.5119,115.324 -40.6775,148.159 -27.1656,32.8349 -59.4808,49.1815 -97.1582,49.1815 -37.3231,0 -70.3234,-17.5041 -99.0008,-52.3469 -28.8427,-35.0081 -43.1578,-85.6542 -43.1578,-152.34z"
     id="path17837" /></glyph>
   <glyph
   unicode="m"
   horiz-adv-x="832"
   id="glyph17843"><path
     d="M65.9927 0l0 518.996 79.0056 0 0 -73.3346c16.169,25.3338 37.8403,45.8404 64.8281,61.1656 27.0047,15.5108 57.6719,23.1734 92.1703,23.1734 38.3298,0 69.8408,-8.00014 94.3307,-23.8316 24.5067,-16.0003 41.8404,-38.161 51.8321,-66.8366 41.334,60.5074 94.837,90.6682 160.847,90.6682 51.6633,0 91.4952,-14.1606 119.158,-42.6674 27.8317,-28.5068 41.8404,-72.3388 41.8404,-131.496l0 -355.837 -88.0015 0 0 326.672c0,34.9879 -3.00427,60.3217 -8.67525,75.8325 -5.6541,15.4939 -16.0003,27.8317 -31.1566,37.334 -15.0045,9.50227 -32.6757,14.1606 -52.8448,14.1606 -36.6588,0 -66.9885,-12.169 -91.1577,-36.3382 -24.1692,-24.3211 -36.1694,-63.1572 -36.1694,-116.491l0 -301.17 -88.0015 0 0 336.833c0,39.0049 -7.15624,68.3387 -21.5025,87.8327 -14.3294,19.494 -37.8234,29.3338 -70.3303,29.3338 -24.6586,0 -47.4945,-6.498 -68.4906,-19.494 -21.013,-13.0129 -36.1694,-32.0005 -45.6717,-57.1655 -9.33349,-25.0131 -14.0087,-61.1656 -14.0087,-108.339l0 -269 -88.0015 0z"
     id="path17841" /></glyph>
   <glyph
   unicode="V"
   horiz-adv-x="666"
   id="glyph17847"><path
     d="M280.845 0l-276.522 715.99 102.686 0 186.001 -520.327c14.8348,-41.6696 27.4963,-80.6699 37.4885,-117.166 11.008,39.1657 23.8348,78.166 38.5042,117.166l192.994 520.327 96.6622 0 -279.168 -715.99 -98.6464 0z"
     id="path17845" /></glyph>
   <glyph
   unicode="d"
   horiz-adv-x="556"
   id="glyph17851"><path
     d="M401.011 0l0 65.8352c-32.8349,-51.1658 -81.166,-76.8431 -145.017,-76.8431 -41.3389,0 -79.3235,11.3387 -113.836,34.1814 -34.6538,22.6537 -61.4887,54.4965 -80.6699,95.1504 -18.9923,40.8428 -28.4884,87.6857 -28.4884,140.67 0,51.6618 8.66936,98.5047 25.8427,140.67 17.3151,42.0003 43.1578,74.3392 77.6463,96.6622 34.3467,22.512 73.0163,33.6617 115.513,33.6617 31.3231,0 59.1737,-6.66147 83.5046,-19.8191 24.3309,-13.1576 44.15,-30.4963 59.5044,-51.6618l0 257.482 87.9928 0 0 -715.99 -81.9928 0zm-278.01 258.829c0,-66.3312 14.008,-115.82 42.1657,-148.655 27.9923,-32.8349 61.158,-49.1815 99.3315,-49.1815 38.5042,0 71.1738,15.6852 98.174,47.0082 26.8349,31.3231 40.3232,79.1581 40.3232,143.505 0,70.6541 -13.6537,122.67 -41.1736,155.836 -27.3309,33.1656 -61.158,49.6539 -101.316,49.6539 -39.1657,0 -71.8352,-15.8269 -98.174,-47.6697 -26.1734,-31.8191 -39.331,-81.9928 -39.331,-150.497z"
     id="path17849" /></glyph>
   <glyph
   unicode="S"
   horiz-adv-x="666"
   id="glyph17855"><path
     d="M45.9925 230.01l89.0086 7.98431c4.15751,-36.0003 14.008,-65.5045 29.5042,-88.6542 15.4962,-23.0081 39.4964,-41.6696 72.0006,-56.0083 32.5042,-14.1733 69.1659,-21.3309 109.82,-21.3309 36.1656,0 68.0084,5.33862 95.67,16.1576 27.6616,10.8426 48.1657,25.6774 61.6777,44.5043 13.4883,18.8269 20.3151,39.331 20.3151,61.3469 0,22.323 -6.49611,41.835 -19.4883,58.654 -12.9922,16.6773 -34.4885,30.6617 -64.4887,42.1657 -19.1813,7.34651 -61.6777,19.0159 -127.513,34.8428 -65.8352,15.8269 -111.828,30.6617 -138.166,44.6696 -34.1577,18.0001 -59.5044,40.3232 -76.1581,66.8273 -16.8427,26.5041 -25.1813,56.339 -25.1813,89.1739 0,36.331 10.3465,70.158 30.8506,101.481 20.4805,31.5121 50.3154,55.3469 89.8117,71.6699 39.3546,16.3466 83.1739,24.4963 131.34,24.4963 53.0083,0 99.8276,-8.48038 140.34,-25.6537 40.4885,-17.008 71.6699,-42.1657 93.4968,-75.4967 21.8269,-33.1656 33.4963,-70.8431 35.1735,-112.843l-91.0165 -6.99218c-4.81894,45.1657 -21.3309,79.3235 -49.4886,102.332 -28.1577,23.1734 -69.8273,34.6538 -124.844,34.6538 -57.3312,0 -99.1661,-10.4883 -125.316,-31.4884 -26.1734,-21.0002 -39.331,-46.3232 -39.331,-75.9927 0,-25.6774 9.33078,-46.8429 27.827,-63.4966 18.3309,-16.5119 65.8352,-33.6853 142.82,-51.0004 77.0085,-17.5041 129.851,-32.6695 158.505,-45.6854 41.5043,-19.1576 72.3313,-43.3232 92.174,-72.8273 19.8427,-29.3388 29.6695,-63.1659 29.6695,-101.505 0,-38.1499 -10.8426,-73.8195 -32.6695,-107.505 -21.8269,-33.6617 -53.0083,-59.8115 -93.8275,-78.4967 -40.8428,-18.6616 -86.67,-27.9923 -137.836,-27.9923 -64.6777,0 -118.843,9.49614 -162.497,28.3231 -43.8429,18.8505 -78.0006,47.1736 -102.851,85.1818 -24.9923,37.8192 -37.9846,80.6699 -39.331,128.505z"
     id="path17853" /></glyph>
   <glyph
   unicode="u"
   horiz-adv-x="556"
   id="glyph17859"><path
     d="M405.003 0l0 77.1738c-40.3468,-58.843 -95.0086,-88.1818 -164.175,-88.1818 -30.4963,0 -58.9847,5.83469 -85.4889,17.5041 -26.5041,11.8347 -46.1815,26.5041 -59.0083,44.1736 -12.8269,17.8348 -21.8269,39.4964 -27.0002,65.1737 -3.49609,17.3151 -5.33862,44.646 -5.33862,81.9928l0 321.168 88.0164 0 0 -287.175c0,-45.8271 1.81891,-76.8195 5.315,-92.67 5.50398,-23.1498 17.1734,-41.1499 35.1735,-54.3311 17.8348,-13.1576 39.8271,-19.8191 66.1659,-19.8191 26.3388,0 51.0004,6.66147 74.0085,20.1498 22.9844,13.5119 39.331,32.0081 48.9925,55.1815 9.49614,23.1498 14.3387,57.0004 14.3387,101.15l0 277.514 87.9928 0 0 -519.004 -78.9927 0z"
     id="path17857" /></glyph>
   <glyph
   unicode=" "
   horiz-adv-x="277"
   id="glyph17861" />
   <glyph
   unicode="é"
   horiz-adv-x="556"
   id="glyph17865"><path
     d="M420.007 168.003l90.9889 -12.0002c-14.1606,-52.8279 -40.6589,-94.01 -79.3262,-123.175 -38.6673,-29.165 -88.0015,-43.832 -148.171,-43.832 -75.6637,0 -135.665,23.3422 -180.003,70.0096 -44.3214,46.4987 -66.499,112.002 -66.499,196.155 0,87.0057 22.3295,154.669 67.1741,202.67 44.8278,48.1696 102.989,72.17 174.501,72.17 69.1657,0 125.656,-23.4941 169.488,-70.6679 43.8488,-47.1738 65.8408,-113.504 65.8408,-199.008 0,-5.16464 -0.168779,-12.996 -0.506338,-23.3253l-386.488 0c3.32495,-56.828 19.3252,-100.508 48.3215,-130.669 28.8444,-30.1608 65.0138,-45.3341 108.171,-45.3341 32.1693,0 59.6635,8.50647 82.3305,25.5025 22.8358,16.9961 40.8446,44.1695 54.1781,81.5035zm-288.005 140.998l289.001 0c-3.83129,43.6632 -15.0045,76.3388 -33.1651,98.162 -27.8317,33.8402 -64.1699,50.8363 -108.677,50.8363 -40.3214,0 -74.1616,-13.5023 -101.656,-40.507 -27.3422,-26.9878 -42.4986,-63.1572 -45.5029,-108.491zm73.9928 273.996l64.0011 136.998 116.002 0 -107.006 -136.998 -72.997 0z"
     id="path17863" /></glyph>
   <glyph
   unicode="r"
   horiz-adv-x="333"
   id="glyph17869"><path
     d="M65.0084 0l0 519.004 78.9927 0 0 -79.5124c20.1734,36.8507 38.835,61.1816 56.0083,72.851 17.1497,11.8347 36.0003,17.6458 56.4808,17.6458 29.6695,0 59.8351,-9.33078 90.5204,-27.827l-31.3467 -81.166c-21.3309,12.0001 -42.6618,18.0001 -63.9926,18.0001 -19.1813,0 -36.331,-5.83469 -51.4965,-17.3387 -15.1655,-11.4804 -26.0081,-27.4963 -32.5042,-48.0004 -9.82685,-31.1577 -14.6694,-65.3155 -14.6694,-102.497l0 -271.16 -87.9928 0z"
     id="path17867" /></glyph>
   <glyph
   unicode="a"
   horiz-adv-x="556"
   id="glyph17873"><path
     d="M405.003 65.0084c-32.6695,-27.8506 -64.1816,-47.339 -94.3472,-58.843 -30.1656,-11.504 -62.4808,-17.1734 -97.1582,-17.1734 -57.0004,0 -100.82,13.8426 -131.505,41.6696 -30.6617,27.6616 -45.9925,63.1659 -45.9925,106.347 0,25.323 5.83469,48.4964 17.3387,69.4966 11.6694,21.0002 26.8349,37.6538 45.4964,50.339 18.8269,12.6615 39.8271,22.323 63.3312,28.8191 17.3387,4.51185 43.4885,8.83472 78.3313,13.1812 71.0084,8.31503 123.497,18.4962 156.993,30.1656 0.330711,12.0001 0.519689,19.6537 0.519689,22.8191 0,35.6696 -8.33865,60.8273 -25.0159,75.4967 -22.4884,19.8427 -55.9847,29.6695 -100.324,29.6695 -41.5043,0 -72.1659,-7.32289 -91.8432,-21.8269 -19.8191,-14.5041 -34.3231,-40.1578 -43.8192,-77.1738l-86.0086 12.0001c7.84258,36.8271 20.6695,66.6619 38.6696,89.3393 18.0001,22.6773 44.0082,39.9924 78.0006,52.3232 33.827,12.1655 73.3234,18.3309 117.993,18.3309 44.3389,0 80.5046,-5.14965 108.332,-15.6615 27.6616,-10.4883 48.1657,-23.5041 61.1816,-39.331 12.9922,-15.8269 22.1577,-35.8349 27.4963,-60.0005 2.83467,-15.0001 4.32287,-42.0003 4.32287,-80.8353l0 -116.67c0,-81.4967 1.84253,-132.993 5.50398,-154.82 3.49609,-21.8269 10.8426,-42.6618 21.4962,-62.6698l-91.985 0c-8.83472,18.4962 -14.5041,40.1578 -17.008,65.0084zm-6.99218 195.002c-32.0081,-13.0159 -80.0085,-24.0002 -144.001,-33.0003 -36.3546,-5.17327 -62.0084,-11.008 -77.0085,-17.5041 -15.0001,-6.49611 -26.5041,-16.0159 -34.6774,-28.3467 -8.14967,-12.4962 -12.3308,-26.3152 -12.3308,-41.6696 0,-23.1498 8.83472,-42.6618 26.6695,-58.1579 17.8348,-15.4962 43.8429,-23.3388 78.0006,-23.3388 33.827,0 63.9926,7.34651 90.4968,22.1813 26.3388,14.6694 45.8508,34.8192 58.1816,60.3312 9.49614,19.8191 14.1497,48.9925 14.1497,87.4968l0.519689 32.0081z"
     id="path17871" /></glyph>
   <glyph
   unicode="."
   horiz-adv-x="277"
   id="glyph17877"><path
     d="M90.9928 0l0 99.9929 100.017 0 0 -99.9929 -100.017 0z"
     id="path17875" /></glyph>
   <glyph
   unicode="o"
   horiz-adv-x="556"
   id="glyph17881"><path
     d="M33.0003 259.49c0,95.8354 26.6695,166.844 80.1739,213.002 44.5043,38.3389 99.0008,57.4965 163.159,57.4965 71.1738,0 129.497,-23.3151 174.828,-69.9927 45.1657,-46.4886 67.8431,-111.001 67.8431,-193.159 0,-66.6619 -10.0158,-119.009 -30.0002,-157.159 -20.008,-38.1735 -49.1815,-67.8431 -87.4968,-89.0086 -38.1735,-21.1655 -80.0085,-31.6774 -125.174,-31.6774 -72.662,0 -131.34,23.1734 -176.175,69.6856 -44.835,46.4886 -67.158,113.481 -67.158,200.813zm90.0007 -0.165356c0,-66.3312 14.5041,-115.985 43.4885,-148.82 29.1735,-33.0003 65.6698,-49.5122 109.843,-49.5122 43.6775,0 80.0085,16.5119 109.158,49.6776 29.0081,33.1656 43.5122,83.67 43.5122,151.489 0,64.0163 -14.6694,112.513 -43.8429,145.348 -29.1498,33.0003 -65.5045,49.4886 -108.828,49.4886 -44.1736,0 -80.6699,-16.323 -109.843,-49.1579 -28.9845,-32.8349 -43.4885,-82.3471 -43.4885,-148.513z"
     id="path17879" /></glyph>
   <glyph
   unicode="l"
   horiz-adv-x="222"
   id="glyph17885"><path
     d="M63.9926 0l0 715.99 88.0164 0 0 -715.99 -88.0164 0z"
     id="path17883" /></glyph>
   <glyph
   unicode="z"
   horiz-adv-x="500"
   id="glyph17889"><path
     d="M19.494 0l0 71.6637 328.681 379.331c-37.334,-1.99159 -70.1784,-2.98739 -98.4996,-2.98739l-210.181 0 0 70.9885 423.011 0 0 -57.8238 -281.338 -329.001 -53.8406 -61.1656c39.5112,3.32495 76.5076,4.99586 111.006,4.99586l240.173 0 0 -76.0013 -459.012 0z"
     id="path17887" /></glyph>
   <glyph
   unicode="i"
   horiz-adv-x="222"
   id="glyph17893"><path
     d="M66.0005 615.997l0 99.9929 87.9928 0 0 -99.9929 -87.9928 0zm0 -615.997l0 519.004 87.9928 0 0 -519.004 -87.9928 0z"
     id="path17891" /></glyph>
   <glyph
   unicode="%"
   horiz-adv-x="889"
   id="glyph17897"><path
     d="M57.9926 544.162c0,51.0004 12.8505,94.5126 38.6696,130.182 25.8427,35.8113 63.1659,53.6461 112.182,53.6461 45.0004,0 82.3235,-15.9923 111.828,-48.0004 29.5042,-31.9845 44.3389,-79.1581 44.3389,-141.166 0,-60.4965 -15.0001,-107.15 -44.835,-139.82 -29.8349,-32.6695 -66.6856,-48.9925 -110.339,-48.9925 -43.5122,0 -79.6778,16.1576 -108.497,48.3311 -28.8427,32.1499 -43.3468,80.8353 -43.3468,145.82zm153.332 122.836c-21.8269,0 -39.9924,-9.33078 -54.4965,-28.1577 -14.5041,-18.8505 -21.8269,-53.339 -21.8269,-103.513 0,-45.6618 7.32289,-77.8353 21.9923,-96.3315 14.6694,-18.6616 32.8349,-27.9923 54.3311,-27.9923 22.1813,0 40.5121,9.33078 55.0162,28.1577 14.5041,18.8505 21.6616,53.1736 21.6616,103.017 0,45.9925 -7.34651,78.3313 -21.9923,96.8275 -14.6694,18.6616 -32.8349,27.9923 -54.6855,27.9923zm0.519689 -693.005l390.499 753.998 71.6462 0 -389.483 -753.998 -72.662 0zm308.152 194.175c0,51.3311 12.8269,94.8433 38.6696,130.489 25.6774,35.5042 63.1659,53.339 112.324,53.339 45.0004,0 82.3471,-15.9923 111.851,-48.0004 29.5042,-31.9845 44.15,-79.1581 44.15,-141.166 0,-60.4965 -14.8348,-107.15 -44.646,-139.82 -29.8349,-32.6695 -66.8509,-49.0161 -110.836,-49.0161 -43.3468,0 -79.3471,16.1812 -108.166,48.4964 -28.8427,32.3388 -43.3468,81.0006 -43.3468,145.678zm153.497 122.836c-22.1577,0 -40.3232,-9.33078 -54.8272,-28.1577 -14.5041,-18.8505 -21.6616,-53.339 -21.6616,-103.513 0,-45.3311 7.32289,-77.3392 21.9923,-96.1661 14.5041,-18.8269 32.5042,-28.1577 54.0004,-28.1577 22.512,0 40.8428,9.33078 55.3469,28.1577 14.4804,18.8269 21.6616,53.1736 21.6616,102.993 0,46.0161 -7.34651,78.3313 -22.0159,96.8512 -14.4804,18.6616 -32.6459,27.9923 -54.4965,27.9923z"
     id="path17895" /></glyph>
  </font>
  <font
   id="FontID0"
   horiz-adv-x="739"
   font-variant="normal"
   style="fill-rule:nonzero"
   font-weight="400">
	<font-face
   font-family="Century Gothic"
   id="font-face17900">
	</font-face>
   <missing-glyph
   id="missing-glyph17904"><path
     d="M0 0z"
     id="path17902" /></missing-glyph>
   <glyph
   unicode="€"
   horiz-adv-x="554"
   id="glyph17908"><path
     d="M96.1666 471.001c25.0015,81.8327 71.3345,146.501 138.999,193.831 67.5026,47.4998 145.168,71.1689 232.666,71.1689 21.1697,0 47.1686,-2.66883 78.1703,-8.00265l-18.1696 -67.9994c-18.832,4.00132 -38.4998,6.00006 -58.6643,6.00006 -64.9994,0 -124.003,-17.3339 -177.333,-51.8324 -53.3343,-34.4984 -92.3347,-82.1677 -116.836,-143.166l313.001 0 -17.6651 -67.9994 -311.834 0c-2.33379,-15.0002 -3.50068,-30.6666 -3.50068,-46.8336 0,-9.83579 0.831844,-22.5022 2.49938,-38.1686l289.501 0 -17.669 -66.9981 -257.167 0c22.5022,-63.5013 60.8363,-113.169 115.168,-149 54.3356,-36.0004 116.166,-54.0006 185.667,-54.0006 21.1658,0 43.8336,2.66498 67.9994,7.9988l0 -67.9994c-20.8308,-4.00132 -45.1661,-6.00006 -73.1676,-6.00006 -91.499,0 -170.667,23.8346 -237.164,71.3345 -66.5013,47.4998 -111.667,113.331 -135.502,197.667l-72.1663 0 17.0027 66.9981 42.9979 0c-1.33249,18.1658 -1.99874,32.8347 -1.99874,43.9992 0,10.3364 0.666246,24.0002 1.99874,41.003l-60.0006 0 18.0002 67.9994 55.1674 0z"
     id="path17906" /></glyph>
   <glyph
   unicode="3"
   horiz-adv-x="554"
   id="glyph17912"><path
     d="M132.999 551.001l-73.9995 0c13.3326,59.3344 38.8348,105.001 76.4989,137 37.6679,31.999 82.1677,48.0005 133.503,48.0005 37.3329,0 72.1663,-8.49945 104.5,-25.6678 32.3302,-16.9989 57.3318,-40.0017 74.9969,-69.0007 17.669,-28.999 26.4996,-59.1649 26.4996,-90.8328 0,-61.8338 -30.4971,-110.832 -91.499,-146.832 34.3328,-14.0027 62.6656,-34.5023 84.6671,-61.5026 31.1672,-38.1647 46.8336,-80.6658 46.8336,-127.831 0,-40.6679 -10.6676,-79.5027 -32.1685,-116.501 -21.497,-36.8322 -50.8311,-65.3344 -87.8327,-85.499 -36.9978,-20.1684 -78.4976,-30.3354 -124.334,-30.3354 -61.8338,0 -113.331,17.8346 -154.665,53.6655 -41.3342,35.6692 -68.3345,88.1678 -81.0008,157.334l70.002 0c12.3313,-46.668 30.0003,-80.5002 53.1649,-101.331 29.6691,-26.5035 67.3332,-39.6666 113.169,-39.6666 51.998,0 93.8328,15.6664 125.331,46.8297 31.4984,31.1672 47.3342,67.6682 47.3342,109.669 0,28.0016 -7.8332,54.1662 -23.669,78.5014 -15.6664,24.3314 -36.8322,42.6667 -63.3318,55.1636 -26.4996,12.3352 -67.4988,19.8333 -123.001,22.8334l0 66.0007c32.8347,0 62.835,5.83446 89.8353,17.3339 27.0003,11.4995 46.668,26.1684 58.8337,44.1686 12.1657,17.8307 18.3314,37.3329 18.3314,58.4987 0,31.1672 -12.3313,58.1675 -37.1673,80.8314 -24.8321,22.8334 -56.1649,34.1672 -94.164,34.1672 -30.836,0 -57.3356,-8.66504 -79.8339,-26.1646 -22.3327,-17.4995 -41.3342,-47.0031 -56.835,-88.834z"
     id="path17910" /></glyph>
   <glyph
   unicode="0"
   horiz-adv-x="554"
   id="glyph17916"><path
     d="M32.0012 358.829c0,94.6716 10.1611,167.834 30.4936,219.506 20.3428,51.8278 49.0087,90.9955 86.1731,117.668 36.9992,26.6625 78.5006,39.9938 124.494,39.9938 46.5097,0 88.672,-13.4965 126.342,-40.3346 37.6601,-26.8278 67.658,-66.9971 89.4981,-120.663 21.995,-53.6658 32.9926,-125.836 32.9926,-216.171 0,-90.159 -10.8323,-161.999 -32.4969,-215.324 -21.6646,-53.3354 -51.4973,-93.5048 -89.4981,-120.673 -38.0008,-27.1685 -80.3284,-40.8302 -126.838,-40.8302 -45.9934,0 -87.3296,13.166 -123.998,39.4981 -36.834,26.3321 -65.4998,65.665 -86.1627,117.834 -20.6629,52.3337 -30.9996,125.33 -30.9996,219.496zm67.9988 -1.33209c0,-80.9996 7.16646,-142.328 21.6646,-183.829 14.4981,-41.5014 35.9975,-72.9967 64.3329,-94.5064 28.3354,-21.4994 58.1681,-32.1665 89.8389,-32.1665 31.8257,0 61.6584,10.5019 89.3329,31.5056 27.6642,21.0037 48.6679,52.499 63.0008,94.4961 17.8335,51.0017 26.8278,112.505 26.8278,184.5 0,72.3358 -8.00289,131.34 -23.9983,177.499 -15.8302,46.0037 -38.0008,79.6675 -66.171,101.002 -27.9946,21.3342 -57.8273,32.0012 -88.9922,32.0012 -32.0012,0 -61.834,-10.6671 -89.8389,-32.0012 -27.9946,-21.3342 -49.3288,-52.6642 -64.0025,-94.1656 -14.6634,-41.5014 -21.995,-102.995 -21.995,-184.335z"
     id="path17914" /></glyph>
   <glyph
   unicode="t"
   horiz-adv-x="338"
   id="glyph17920"><path
     d="M134.999 729l68.0008 0 0 -197.999 108 0 0 -59.0029 -108 0 0 -471.998 -68.0008 0 0 471.998 -92.9983 0 0 59.0029 92.9983 0 0 197.999z"
     id="path17918" /></glyph>
   <glyph
   unicode="-"
   horiz-adv-x="331"
   id="glyph17924"><path
     d="M31.9992 300l268.001 0 0 -60.001 -268.001 0 0 60.001z"
     id="path17922" /></glyph>
   <glyph
   unicode="*"
   horiz-adv-x="424"
   id="glyph17928"><path
     d="M180.002 736.001l62.9968 0 -13.9989 -145.168 119 85.9996 31.999 -54.6668 -134.166 -61.1637 134.166 -60.0006 -31.999 -55.0018 -119 84.8327 13.9989 -144.833 -62.9968 0 14.9963 144.833 -119.832 -84.8327 -32.1646 55.0018 137 60.0006 -137 61.1637 32.1646 54.6668 119.832 -85.834 -14.9963 145.003z"
     id="path17926" /></glyph>
   <glyph
   unicode="8"
   horiz-adv-x="554"
   id="glyph17932"><path
     d="M383.499 394.167c48.5011,-24.1658 83.3346,-51.6668 104.666,-82.4989 21.1697,-31.0016 31.8334,-66.1663 31.8334,-105.502 0,-55.333 -18.0002,-104.165 -54.1662,-146.501 -44.1648,-51.8324 -107.5,-77.6658 -189.834,-77.6658 -79.3333,0 -139.5,22.6678 -180.499,68.165 -40.9991,45.3355 -61.4987,95.5003 -61.4987,150.167 0,40.0017 10.6638,76.0021 32.1646,108.167 21.3353,32.0029 57.1662,60.6669 107.335,85.6684 -35.1685,18.1658 -61.5026,40.8335 -79.1677,67.8338 -17.4995,27.0003 -26.334,55.8337 -26.334,86.8314 0,31.1672 9.33514,61.6682 28.0016,91.3334 18.6664,29.8347 44.4998,53.1687 77.5002,70.1676 33.0003,17.1683 68.6657,25.6678 106.83,25.6678 37.5023,0 72.0007,-8.6689 103.834,-25.8334 31.8334,-17.1683 56.835,-40.6679 74.8352,-70.1676 18.0002,-29.6653 27.0003,-60.6669 27.0003,-93.1666 0,-32.4997 -8.49945,-61.4987 -25.6678,-86.8353 -16.9989,-25.3327 -42.6667,-47.3304 -76.8339,-65.8312zm-105.667 271.832c-39.166,0 -71.6657,-11.6651 -97.3335,-34.8335 -25.6639,-23.1646 -38.4998,-50.8311 -38.4998,-82.9996 0,-31.8334 13.8333,-60.6669 41.4998,-86.5002 27.6665,-25.8334 59.835,-38.6654 96.6672,-38.6654 23.669,0 46.0018,5.83446 67.002,17.4995 21.0002,11.6651 37.3329,27.6665 49.1674,48.0005 11.8307,20.334 17.6651,40.6679 17.6651,61.1675 0,28.8334 -11.6689,55.4986 -34.8335,79.8301 -23.334,24.3353 -57.1662,36.501 -101.335,36.501zm2.83443 -307.998c-49.4986,0 -90.8328,-16.0014 -124.334,-48.0005 -33.501,-32.1685 -50.3343,-69.5014 -50.3343,-112.168 0,-26.334 7.16695,-51.1661 21.5009,-74.6657 14.3339,-23.334 34.3328,-41.4998 60.0006,-54.1662 25.6678,-12.6664 55.4986,-19.0015 89.3347,-19.0015 52.333,0 93.8328,15.5008 124.831,46.333 30.836,31.0016 46.333,67.002 46.333,108.336 0,40.1634 -16.3326,75.6632 -48.9979,106.665 -32.6653,31.1672 -72.1663,46.668 -118.334,46.668z"
     id="path17930" /></glyph>
   <glyph
   unicode="e"
   horiz-adv-x="649"
   id="glyph17936"><path
     d="M524.335 176.001l57.6638 -30.334c-18.9989,-36.8317 -40.8341,-66.6667 -65.6636,-89.3319 -24.8345,-22.5022 -52.6682,-39.836 -83.6693,-51.6701 -31.1641,-11.8292 -66.1676,-17.6648 -105.332,-17.6648 -86.9997,0 -154.832,28.3328 -203.834,84.9985 -49.0019,56.6706 -73.5003,120.669 -73.5003,192 0,67.1707 20.8321,127.167 62.3332,179.667 52.5002,66.8347 123.001,100.336 211.167,100.336 90.8341,0 163.499,-34.3364 217.665,-102.836 38.5018,-48.3299 58.1678,-108.667 58.8349,-181.164l-479.998 0c1.32918,-61.5031 21.1632,-111.834 59.329,-151.003 38.3338,-39.3319 85.6705,-58.9979 141.837,-58.9979 27.1667,0 53.6664,4.66449 79.331,13.9984 25.6695,9.33393 47.4998,21.6672 65.5005,37.1677 18.0008,15.5005 37.4988,40.335 58.3358,74.8345zm0.667062 142.998c-9.17087,36.5006 -22.5022,65.5005 -40.004,87.3357 -17.6648,21.8302 -40.8341,39.3319 -69.666,52.6633 -28.8319,13.3363 -59.1659,20.002 -90.8341,20.002 -52.5002,0 -97.4998,-16.6667 -135.167,-50.168 -27.6658,-24.4985 -48.3299,-60.9991 -62.4963,-109.833l398.167 0z"
     id="path17934" /></glyph>
   <glyph
   unicode=","
   horiz-adv-x="276"
   id="glyph17940"><path
     d="M144.333 132.001l65.6656 -31.3328 -98.8316 -184.669 -48.1661 20.4996 81.332 195.503z"
     id="path17938" /></glyph>
   <glyph
   unicode="m"
   horiz-adv-x="937"
   id="glyph17944"><path
     d="M76.0006 531.001l68.0008 0 0 -91.8322c23.8314,33.8324 48.1668,58.6669 73.3323,74.3305 34.4995,20.333 70.8321,30.502 108.835,30.502 25.8326,0 50.1631,-5.00049 73.3323,-15.1695 23.1643,-10.001 42.0002,-23.5003 56.6657,-40.167 14.6655,-16.8297 27.3347,-40.8291 38.1658,-72.1662 22.6653,41.6691 51.1661,73.3323 85.1665,94.9995 34.1684,21.6672 70.8321,32.5032 110.169,32.5032 36.6637,0 69.1669,-9.33393 97.1638,-27.8338 28.1698,-18.4999 49.0019,-44.3324 62.6692,-77.5027 13.6674,-33.1653 20.501,-82.8293 20.501,-149.165l0 -289.5 -70.002 0 0 289.668c0,56.9967 -4.00237,95.9976 -12.1652,117.334 -8.1678,21.3312 -22.0032,38.4969 -41.6691,51.4972 -19.666,13.0003 -42.9983,19.5029 -70.333,19.5029 -32.9973,0 -63.3314,-9.83299 -90.6661,-29.3359 -27.4978,-19.498 -47.4998,-45.4986 -60.164,-77.9968 -12.6692,-32.5032 -19.0039,-86.8366 -19.0039,-162.837l0 -207.832 -68.0008 0 0 271.667c0,63.9984 -3.99743,107.501 -11.9972,130.497 -7.9998,23.0013 -21.8352,41.3381 -41.6691,55.1685 -19.997,13.8354 -43.4974,20.669 -70.8321,20.669 -31.6681,0 -61.1671,-9.50193 -88.6649,-28.5008 -27.5027,-18.9989 -47.8358,-44.6684 -60.9991,-76.8357 -13.1683,-32.1672 -19.834,-81.5001 -19.834,-147.831l0 -224.834 -68.0008 0 0 531.001z"
     id="path17942" /></glyph>
   <glyph
   unicode="1"
   horiz-adv-x="554"
   id="glyph17948"><path
     d="M184.996 717.999l142.007 0 0 -717.999 -72.0054 0 0 647.997 -113.001 0 42.9988 70.0021z"
     id="path17946" /></glyph>
   <glyph
   unicode="d"
   horiz-adv-x="684"
   id="glyph17952"><path
     d="M606 735.998l0 -735.998 -67.9988 0 0 91.3362c-28.6658,-34.841 -60.6671,-61.0078 -96.3342,-78.3354 -35.5019,-17.3379 -74.5043,-26.0017 -116.667,-26.0017 -75,0 -139.168,27.1685 -192.338,81.5056 -53.1599,54.4919 -79.6572,120.498 -79.6572,198.492 0,76.1669 26.8278,141.501 80.4936,195.673 53.5006,54.1615 117.999,81.33 193.505,81.33 43.4944,0 82.8273,-9.33499 118.164,-27.8294 35.1611,-18.5048 66.171,-46.3342 92.8335,-83.5089l0 303.335 67.9988 0zm-273.668 -257.993c-38.0008,0 -73.1619,-9.33499 -105.163,-28.005 -32.1665,-18.5048 -57.6724,-44.6716 -76.6729,-78.3354 -19.0004,-33.6638 -28.5006,-69.3309 -28.5006,-107.001 0,-37.1644 9.50021,-72.8315 28.6762,-106.826 19.1656,-34.0045 44.8265,-60.5019 77.1582,-79.3371 32.342,-19.0004 67.0074,-28.5006 104.007,-28.5006 37.1644,0 72.6663,9.33499 106,28.1702 33.4986,18.8249 59.1594,44.1656 77.1685,76.3321 17.9988,32.0012 26.993,68.164 26.993,108.333 0,61.1627 -20.1673,112.33 -60.6671,153.501 -40.3346,41.1607 -89.9938,61.6687 -148.998,61.6687z"
     id="path17950" /></glyph>
   <glyph
   unicode=" "
   horiz-adv-x="276"
   id="glyph17954" />
   <glyph
   unicode="u"
   horiz-adv-x="607"
   id="glyph17958"><path
     d="M66.9977 531.001l68.0008 0 0 -247.836c0,-60.5 3.33531,-101.996 9.83299,-124.83 9.66993,-32.5032 28.5008,-58.1678 56.0036,-77.0037 27.4978,-18.8309 60.5,-28.3328 98.6659,-28.3328 38.1658,0 70.501,9.16593 97.1638,27.5027 26.4997,18.4999 45.0044,42.4993 55.0005,72.4973 6.83368,20.501 10.337,63.8354 10.337,130.166l0 247.836 69.997 0 0 -260.332c0,-73.1693 -8.49886,-128.17 -25.6646,-165.169 -17.0027,-37.1677 -42.8353,-66.1676 -77.1667,-86.9997 -34.3364,-21.0001 -77.3347,-31.5001 -129.168,-31.5001 -51.8332,0 -94.9995,10.5 -129.667,31.5001 -34.6675,20.8321 -60.6681,50.168 -77.6658,87.6668 -17.1657,37.4988 -25.6695,94.0014 -25.6695,169.335l0 255.5z"
     id="path17956" /></glyph>
   <glyph
   unicode="a"
   horiz-adv-x="683"
   id="glyph17962"><path
     d="M605 531.001l0 -531.001 -68.0008 0 0 91.3331c-28.6639,-34.8355 -60.6681,-60.9991 -96.3336,-78.3328 -35.4976,-17.3337 -74.4985,-26.0006 -116.667,-26.0006 -74.9975,0 -139.164,27.1667 -192.331,81.5001 -53.1673,54.5014 -79.667,120.501 -79.667,198.498 0,76.1686 26.8307,141.501 80.4971,195.667 53.5033,54.1704 118.001,81.3371 193.502,81.3371 43.4974,0 82.8343,-9.16593 118.164,-27.5027 35.1665,-18.3319 66.1676,-45.9976 92.8353,-83.1653l0 97.6678 68.0008 0zm-273.668 -52.9993c-37.9978,0 -73.1643,-9.33393 -105.164,-28.0018 -32.1672,-18.4999 -57.6687,-44.6684 -76.6677,-78.3328 -18.9989,-33.6693 -28.5008,-69.3349 -28.5008,-107.002 0,-37.1677 9.50193,-72.8333 28.6688,-106.834 19.162,-34.0004 44.8315,-60.5 77.1667,-79.331 32.3303,-18.9989 66.9977,-28.5008 103.997,-28.5008 37.1677,0 72.6653,9.33393 105.999,28.1648 33.5013,18.8359 59.1659,44.1694 77.1667,76.3366 18.0008,31.9992 27.0037,68.1639 27.0037,108.331 0,61.1671 -20.17,112.333 -60.6681,153.503 -40.335,41.1651 -89.999,61.6662 -149.002,61.6662z"
     id="path17960" /></glyph>
   <glyph
   unicode="r"
   horiz-adv-x="300"
   id="glyph17966"><path
     d="M50 531.001l70.002 0 0 -77.6658c20.8321,30.6651 42.8303,53.3304 65.9996,68.3319 23.1643,14.8335 47.3318,22.3342 72.3342,22.3342 18.9989,0 39.1639,-6.00356 60.6631,-18.0008l-35.6656 -57.3327c-14.3344,6.16662 -26.3317,9.33393 -36.1646,9.33393 -22.8333,0 -44.8364,-9.33393 -65.9996,-28.0018 -21.1681,-18.6679 -37.3357,-47.8358 -48.5028,-87.1677 -8.49886,-30.166 -12.6643,-91.3331 -12.6643,-183.333l0 -179.499 -70.002 0 0 531.001z"
     id="path17964" /></glyph>
   <glyph
   unicode="P"
   horiz-adv-x="591"
   id="glyph17970"><path
     d="M86.9997 718.001l143.166 0c81.9992,0 137.499,-3.49837 166.168,-10.6681 41.0021,-10.164 74.4985,-30.8331 100.499,-62.3332 26.1686,-31.3321 39.1689,-70.8321 39.1689,-118.332 0,-47.8358 -12.6692,-87.1677 -38.1658,-118.332 -25.3335,-31.0011 -60.337,-51.8381 -104.837,-62.6692 -32.6663,-7.8318 -93.4974,-11.6662 -182.666,-11.6662l-51.3341 0 0 -334 -71.9982 0 0 718.001zm71.9982 -70.002l0 -243.996 121.667 -1.50212c49.1699,0 85.1665,4.50143 108,13.4994 22.8333,9.00287 40.8341,23.3323 53.8344,43.3343 13.0003,19.997 19.5029,42.4993 19.5029,67.1657 0,23.9994 -6.50262,46.1656 -19.5029,66.1676 -13.0003,19.997 -30.334,34.1684 -51.6652,42.6673 -21.3361,8.49886 -56.1666,12.6643 -104.832,12.6643l-127.004 0z"
     id="path17968" /></glyph>
   <glyph
   unicode="o"
   horiz-adv-x="654"
   id="glyph17974"><path
     d="M327.834 544.001c81.8312,0 149.832,-29.499 203.666,-88.6698 49.0019,-53.8294 73.5003,-117.665 73.5003,-191.333 0,-73.9994 -25.8326,-138.665 -77.6658,-193.996 -51.6701,-55.3365 -118.337,-83.0023 -199.501,-83.0023 -81.6681,0 -148.503,27.6658 -200.168,83.0023 -51.8332,55.3316 -77.6658,119.997 -77.6658,193.996 0,73.3373 24.4985,137 73.5003,190.834 53.8344,59.5019 121.998,89.1689 204.333,89.1689zm-0.336002 -67.0027c-56.8287,0 -105.5,-20.8321 -146.329,-62.6643 -40.8341,-41.8322 -61.1671,-92.4993 -61.1671,-151.833 0,-38.1658 9.32899,-73.8363 27.8338,-107.002 18.6629,-32.9973 43.8334,-58.4989 75.4966,-76.4997 31.5001,-18.0008 66.3356,-26.9987 104.165,-26.9987 37.8348,0 72.6702,8.99792 104.17,26.9987 31.6632,18.0008 56.8337,43.5023 75.4966,76.4997 18.4999,33.1653 27.8338,68.8359 27.8338,107.002 0,59.3339 -20.4961,110.001 -61.4982,151.833 -40.8341,41.8322 -89.5,62.6643 -146.003,62.6643z"
     id="path17972" /></glyph>
   <glyph
   unicode="l"
   horiz-adv-x="200"
   id="glyph17978"><path
     d="M65.9955 735.998l68.0091 0 0 -735.998 -68.0091 0 0 735.998z"
     id="path17976" /></glyph>
   <glyph
   unicode="9"
   horiz-adv-x="554"
   id="glyph17982"><path
     d="M191.998 -18.0002l-58.9993 37.9991 194.166 293.502c-25.999,-8.33385 -50.4999,-12.5008 -73.3332,-12.5008 -56.9967,0 -105.332,20.6652 -145.165,61.8338 -39.8322,41.1647 -59.6656,91.8341 -59.6656,152 0,41.3303 9.66634,78.667 28.8334,111.833 19.1632,33.1659 46.333,59.6656 81.6632,79.4989 35.3341,19.8333 73.1676,29.8347 113.501,29.8347 39.6666,0 76.3333,-9.66634 110,-28.8334 33.6666,-19.1671 60.0006,-46.0018 79.1677,-80.5002 19.1671,-34.5023 28.8334,-71.1689 28.8334,-110.169 0,-29.6653 -6.00006,-60.663 -17.8346,-92.9971 -11.8307,-32.3341 -33.0003,-71.3345 -63.6669,-116.836l-217.5 -324.666zm78.3358 382.001c42.166,0 77.8314,14.6651 107,44.1648 29.1646,29.4997 43.668,65.1688 43.668,106.834 0,41.6654 -14.669,77.3346 -44.1686,106.834 -29.4997,29.4997 -65.165,44.1648 -107,44.1648 -41.6654,0 -77.1651,-14.6651 -106.665,-44.1648 -29.5035,-29.4997 -44.1686,-65.1688 -44.1686,-106.834 0,-41.6654 14.8346,-77.3346 44.3342,-106.834 29.4997,-29.4997 65.165,-44.1648 107,-44.1648z"
     id="path17980" /></glyph>
   <glyph
   unicode="i"
   horiz-adv-x="200"
   id="glyph17986"><path
     d="M99.8348 748.998c15.4998,0 28.6658,-5.4936 39.6634,-16.6667 10.9975,-10.9975 16.5014,-24.494 16.5014,-39.9938 0,-15.3346 -5.50392,-28.6762 -16.5014,-39.6737 -10.9975,-11.1627 -24.1636,-16.6667 -39.6634,-16.6667 -15.3346,0 -28.3354,5.50392 -39.3329,16.6667 -10.9975,10.9975 -16.5014,24.3391 -16.5014,39.6737 0,15.4998 5.50392,28.9963 16.5014,39.9938 10.9975,11.1731 23.9983,16.6667 39.3329,16.6667zm-33.8393 -217.999l68.0091 0 0 -531 -68.0091 0 0 531z"
     id="path17984" /></glyph>
  </font>
</defs>
</svg>
